ATORRENTS

The.Invitation.2022.UNRATED.1080p.WEBRip.DD5.1.x264-CM

Seeders: 75

Leechers: 95

Size: 5.20G

Uploader: prudence25

Btih: ed1e429c6583e84c80456fd9978d9e2cab079817

Uploaded at: Sept. 16, 2022

Hits: 5

Get magnet

File list:

RARBG.txt (0.0 KB)
The.Invitation.Unrated.Edition.2022.1080p.WEB-DL.DD5.1.H.264-CM.mkv (5.2 GB)

Info:

Code:Video
ID : 1
Format : AVC
Format/Info : Advanced Video Codec
Format profile : [email protected]
Format settings : CABAC / 4 Ref Frames
Format settings, CABAC : Yes
Format settings, Reference frames : 4 frames
Codec ID : V_MPEG4/ISO/AVC
Duration : 1 h 45 min
Bit rate : 6 681 kb/s
Width : 1 920 pixels
Height : 1 032 pixels
Display aspect ratio : 1.85:1
Frame rate mode : Constant
Frame rate : 23.976 (24000/1001) FPS
Color space : YUV
Chroma subsampling : 4:2:0
Bit depth : 8 bits
Scan type : Progressive
Bits/(Pixel*Frame) : 0.141
Stream size : 4.94 GiB (95%)
Language : English
Default : Yes
Forced : No
Color range : Limited
Color primaries : BT.709
Transfer characteristics : BT.709
Matrix coefficients : BT.709
Audio
ID : 2
Format : AC-3
Format/Info : Audio Coding 3
Commercial name : Dolby Digital
Codec ID : A_AC3
Duration : 1 h 45 min
Bit rate mode : Constant
Bit rate : 384 kb/s
Channel(s) : 6 channels
Channel layout : L R C LFE Ls Rs
Sampling rate : 48.0 kHz
Frame rate : 31.250 FPS (1536 SPF)
Compression mode : Lossy
Stream size : 291 MiB (5%)
Language : English
Service kind : Complete Main
Default : Yes
Forced : No
Text #1
ID : 3
Format : UTF-8
Codec ID : S_TEXT/UTF8
Codec ID/Info : UTF-8 Plain Text
Duration : 1 h 44 min
Bit rate : 51 b/s
Frame rate : 0.232 FPS
Count of elements : 1455
Stream size : 39.6 KiB (0%)
Title : SDH
Language : English
Default : No
Forced : No
Text #2
ID : 4
Format : UTF-8
Codec ID : S_TEXT/UTF8
Codec ID/Info : UTF-8 Plain Text
Duration : 1 h 40 min
Bit rate : 49 b/s
Frame rate : 0.213 FPS
Count of elements : 1283
Stream size : 36.6 KiB (0%)
Language : English
Default : No
Forced : No
Text #3
ID : 5
Format : UTF-8
Codec ID : S_TEXT/UTF8
Codec ID/Info : UTF-8 Plain Text
Duration : 1 h 39 min
Bit rate : 46 b/s
Frame rate : 0.190 FPS
Count of elements : 1133
Stream size : 33.4 KiB (0%)
Language : English
Default : No
Forced : No