ATORRENTS

Nope.2022.TELESYNC.x264-iDiOTS

Seeders: 0

Leechers: 0

Size: 634.5M

Uploader: mazemaze16

Btih: 622614edc0f418a451f838cfda9afd20480bc19b

Uploaded at: Aug. 4, 2022

Hits: 7

Get magnet

File list:

Nope.2022.TELESYNC.x264-iDiOTS.mkv (634.5 MB)
Nope.2022.TELESYNC.x264-iDiOTS.nfo (5.4 KB)

Info:

Nope.2022.TELESYNC.x264-iDiOTS
MEDIAINFO
Video
ID : 1
Format : AVC
Format/Info : Advanced Video Codec
Format profile : [email protected]
Format settings : CABAC / 8 Ref Frames
Format settings, CABAC : Yes
Format settings, Reference frames : 8 frames
Codec ID : V_MPEG4/ISO/AVC
Duration : 2 h 10 min
Bit rate : 487 kb/s
Width : 720 pixels
Height : 406 pixels
Display aspect ratio : 16:9
Frame rate mode : Constant
Frame rate : 24.000 FPS
Color space : YUV
Chroma subsampling : 4:2:0
Bit depth : 8 bits
Scan type : Progressive
Bits/(Pixel*Frame) : 0.069
Stream size : 454 MiB (72%)
Audio
ID : 2
Format : AC-3
Format/Info : Audio Coding 3
Commercial name : Dolby Digital
Codec ID : A_AC3
Duration : 2 h 10 min
Bit rate mode : Constant
Bit rate : 192 kb/s
Channel(s) : 2 channels
Channel layout : L R
Sampling rate : 48.0 kHz
Frame rate : 31.250 FPS (1536 SPF)
Compression mode : Lossy
Delay relative to video : -44 ms
Stream size : 179 MiB (28%)
Title : english
Language : English
Service kind : Complete Main
Default : Yes
Forced : No