ATORRENTS

Jurassic.World.Dominion.2022.720p.NEW.HDTS.x265-iDiOTS

Seeders: 0

Leechers: 0

Size: 3.60G

Uploader: mazemaze16

Btih: 53cfda33dc64cf1312026c074fb47a740af8f5d9

Uploaded at: June 21, 2022

Hits: 9

Get magnet

File list:

Jurassic.World.Dominion.2022.720p.NEW.HDTS.x265-iDiOTS.mkv (3.6 GB)
Jurassic.World.Dominion.2022.720p.NEW.HDTS.x265-iDiOTS.nfo (4.8 KB)

Info:

Jurassic.World.Dominion.2022.720p.NEW.HDTS.x265-iDiOTS
Video
ID : 1
Format : HEVC
Format/Info : High Efficiency Video Coding
Format profile : Main [email protected]@High
Codec ID : V_MPEGH/ISO/HEVC
Duration : 2 h 20 min
Bit rate : 3 354 kb/s
Width : 1 280 pixels
Height : 568 pixels
Display aspect ratio : 2.25:1
Frame rate mode : Constant
Frame rate : 24.000 FPS
Color space : YUV
Chroma subsampling : 4:2:0
Bit depth : 10 bits
Bits/(Pixel*Frame) : 0.192
Stream size : 3.30 GiB (91%)
Default : Yes
Forced : No
Color range : Limited
Color primaries : BT.709
Transfer characteristics : BT.709
Matrix coefficients : BT.709
Audio
ID : 2
Format : AC-3
Format/Info : Audio Coding 3
Commercial name : Dolby Digital
Codec ID : A_AC3
Duration : 2 h 20 min
Bit rate mode : Constant
Bit rate : 320 kb/s
Channel(s) : 2 channels
Channel layout : L R
Sampling rate : 48.0 kHz
Frame rate : 31.250 FPS (1536 SPF)
Compression mode : Lossy
Stream size : 322 MiB (9%)
Title : english
Language : English
Service kind : Complete Main
Default : Yes
Forced : No