ATORRENTS

Confess.Fletch.2022.1080p.WEBRip.DD5.1.x264-CM

Seeders: 73

Leechers: 32

Size: 7.20G

Uploader: prudence25

Btih: 80e1a2b3049f9edc3f49396c6e2f4ca79e19e9b1

Uploaded at: Sept. 16, 2022

Hits: 7

Get magnet

File list:

Confess.Fletch.2022.1080p.WEB-DL.DD5.1.H.264-CM.mkv (7.2 GB)
RARBG.txt (0.0 KB)

Info:

Code:Video
ID : 1
Format : AVC
Format/Info : Advanced Video Codec
Format profile : [email protected]
Format settings : CABAC / 4 Ref Frames
Format settings, CABAC : Yes
Format settings, Reference frames : 4 frames
Codec ID : V_MPEG4/ISO/AVC
Duration : 1 h 38 min
Bit rate : 10.1 Mb/s
Width : 1 916 pixels
Height : 1 034 pixels
Display aspect ratio : 1.85:1
Frame rate mode : Constant
Frame rate : 23.976 (24000/1001) FPS
Color space : YUV
Chroma subsampling : 4:2:0
Bit depth : 8 bits
Scan type : Progressive
Bits/(Pixel*Frame) : 0.212
Stream size : 6.93 GiB (96%)
Language : English
Default : Yes
Forced : No
Color range : Limited
Color primaries : BT.709
Transfer characteristics : BT.709
Matrix coefficients : BT.709
Audio
ID : 2
Format : AC-3
Format/Info : Audio Coding 3
Commercial name : Dolby Digital
Codec ID : A_AC3
Duration : 1 h 38 min
Bit rate mode : Constant
Bit rate : 384 kb/s
Channel(s) : 6 channels
Channel layout : L R C LFE Ls Rs
Sampling rate : 48.0 kHz
Frame rate : 31.250 FPS (1536 SPF)
Compression mode : Lossy
Stream size : 271 MiB (4%)
Language : English
Service kind : Complete Main
Default : Yes
Forced : No
Text #1
ID : 3
Format : UTF-8
Codec ID : S_TEXT/UTF8
Codec ID/Info : UTF-8 Plain Text
Duration : 1 h 38 min
Bit rate : 93 b/s
Frame rate : 0.305 FPS
Count of elements : 1798
Stream size : 67.0 KiB (0%)
Title : SDH
Language : English
Default : No
Forced : No
Text #2
ID : 4
Format : UTF-8
Codec ID : S_TEXT/UTF8
Codec ID/Info : UTF-8 Plain Text
Duration : 1 h 38 min
Bit rate : 85 b/s
Frame rate : 0.283 FPS
Count of elements : 1665
Stream size : 61.2 KiB (0%)
Language : English
Default : No
Forced : No
Menu
00:00:00.000 : en:Chapter 01
00:08:19.124 : en:Chapter 02
00:15:55.747 : en:Chapter 03
00:21:51.853 : en:Chapter 04
00:30:27.494 : en:Chapter 05
00:38:31.478 : en:Chapter 06
00:47:39.901 : en:Chapter 07
00:55:15.857 : en:Chapter 08
01:05:03.028 : en:Chapter 09
01:10:33.066 : en:Chapter 10
01:16:05.648 : en:Chapter 11
01:23:22.002 : en:Chapter 12
01:30:46.446 : en:Chapter 13
01:35:05.914 : en:Chapter 14